<?xml version="1.0" standalone="no"?>
<!DOCTYPE svg PUBLIC "-//W3C//DTD SVG 1.1//EN" "http://www.w3.org/Graphics/SVG/1.1/DTD/svg11.dtd" >
<!--
2013-9-30: Created.
-->
<svg>
<metadata>
Created by iconfont
</metadata>
<defs>

<font id="iconfont" horiz-adv-x="1024" >
  <font-face
    font-family="iconfont"
    font-weight="500"
    font-stretch="normal"
    units-per-em="1024"
    ascent="896"
    descent="-128"
  />
    <missing-glyph />
    
    <glyph glyph-name="md" unicode="&#58884;" d="M471.289899 141.73866699999996c-6.827051 16.384-16.043051 37.205333-27.648 62.464-10.923008 25.258667-22.869683 52.565333-35.839991 81.92-12.970995 29.354667-26.965649 59.392-41.984 90.112-14.336286 31.402667-27.989606 60.757333-40.96 88.064-12.970914 27.989333-25.258901 52.906667-36.864 74.752-10.92288 21.841067-19.797538 38.5664-26.624 50.176-7.509521-80.554667-13.653517-167.936-18.432-262.144-4.778842-93.525333-8.874837-188.074667-12.288-283.648l-97.28 0c2.730581 61.44 5.80259 123.221333 9.216 185.344 3.413248 62.805333 7.167915 124.245333 11.264 184.32 4.778573 60.757333 9.557235 119.808 14.336 177.152 5.461222 57.339733 11.263885 111.611733 17.408 162.816l87.04 0c18.431774-30.0416 38.229086-65.540267 59.392-106.496 21.162377-40.964267 42.325022-83.972267 63.488-129.024 21.162313-44.373333 41.642274-89.088 61.439991-134.144 19.796949-44.373333 37.887573-84.992 54.272-121.856 16.383531 36.864 34.474197 77.482667 54.272 121.856 19.796821 45.056 40.276821 89.770667 61.44 134.144 21.162112 45.051733 42.324736 88.059733 63.488 129.024 21.162027 40.955733 40.95936 76.4544 59.392 106.496l87.04 0c22.126421-218.018133 38.979968-435.549867 50.560683-667.84 0.56704-11.370667 44.931072 2.005333 45.472853-9.412267l-82.925739-85.713067-109.592363 85.713067c-0.523093 14.647467 50.366165-3.114667 49.810987 11.485867-3.06816 80.661333-6.62464 160.5888-10.670421 239.7824-4.779349 94.208-10.923349 181.589333-18.432 262.144-6.827349-11.6096-16.043349-28.334933-27.648-50.176-10.923307-21.845333-22.869973-46.762667-35.84-74.752-12.971264-27.306667-26.965931-56.661333-41.984-88.064-14.336555-30.72-27.989888-60.757333-40.96-90.112-12.971179-29.354667-25.259179-56.661333-36.864-81.92-10.923179-25.258667-19.797803-46.08-26.624-62.464l-79.872 0"  horiz-adv-x="1024" />

    
    <glyph glyph-name="editor" unicode="&#58880;" d="M358.165868 341.37520400000005c-0.533143-0.680499-1.066285-1.391696-1.303692-2.25127399l-41.104163-150.70025701c-2.400676-8.772804 0.059352-18.226107 6.550183-24.89294701 4.860704-4.742001 11.261485-7.350408 18.077727-7.350408 2.252297 0 4.50459401 0.267083 6.72721499 0.86060101l149.63090201 40.808428c0.23842999 0 0.35713399-0.207731 0.53416599-0.207731 1.718131 0 3.408633 0.62216999 4.683672 1.927909l400.11374701 400.054395c11.883655 11.897981 18.40416201 28.10919799 18.404162 45.74280999 0 19.989263-8.476045 39.963177-23.324218 54.767348l-37.786605 37.84493301c-14.81644999 14.848173-34.822087 23.338544-54.797024 23.338544-17.63156599 0-33.842783-6.520507-45.75816-18.388812L358.75836201 342.767923C358.34494599 342.384184 358.46262601 341.82034199 358.165868 341.37520400000005M862.924953 638.80222l-39.74214299-39.71349001-64.42838201 65.45168802 39.180348 39.179324c6.193049 6.222725 18.194384 5.31812199 25.308409-1.822508l37.813211-37.845956c3.94382201-3.941775 6.195096-9.18622 6.195096-14.372336C867.22386201 645.42505799 865.710392 641.57231001 862.924953 638.80222M429.322487 335.09210399999995l288.712541 288.72891399 64.459081-65.49568999L494.314711 270.16127900000004 429.322487 335.09210399999995zM376.718409 218.02996800000005l20.863167 76.580143 55.656601-55.657624L376.718409 218.02996800000005zM888.265084 480.264461c-15.144932 0-27.562752-12.313443-27.62005801-27.66508301l0-372.98282999c0-19.559475-15.885805-35.444257-35.47597899-35.444257L194.22095801 44.17229099999997c-19.559475 0-35.504632 15.883759-35.50463202 35.444257L158.71632599 688.39777799c0 19.575848 15.945157 35.474956 35.50463202 35.47495602l406.36717099 0c15.231913 0 27.592428 12.371772 27.592428 27.60675499 0 15.202237-12.360516 27.59038201-27.592428 27.590382L190.013123 779.069871c-47.68402199 0-86.49290999-38.779212-86.49291-86.49291L103.520213 75.40769001000001c0-47.71369799 38.808888-86.47756 86.49291-86.47756l639.33408301-2e-8c47.715745 0 86.509283 38.76386201 86.50928299 86.47756L915.856489 452.777433C915.794068 467.951017 903.408993 480.264461 888.265084 480.264461"  horiz-adv-x="1024" />

    
    <glyph glyph-name="checked-false" unicode="&#59140;" d="M837.91129067 746.24712c9.45807787 0 18.40968747-3.7428448 25.206624-10.53978133 6.79693653-6.79693653 10.53978133-15.74854613 10.53978133-25.206624l0-652.727456c0-9.45807787-3.7428448-18.40968747-10.53978133-25.206624-6.79693653-6.79693653-15.74854613-10.53978133-25.206624-10.53978134L185.18383467 22.026853329999994c-9.45807787 0-18.40968747 3.7428448-25.206624 10.53978134-6.79693653 6.79693653-10.53978133 15.74854613-10.53978134 25.206624L149.43742933 710.49962347c0 9.45807787 3.7428448 18.40968747 10.53978134 25.206624 6.79693653 6.79693653 15.74854613 10.53978133 25.206624 10.53978133L837.91129067 746.24602773M837.91129067 792.09123733L185.18383467 792.09123733c-44.8748416 0-81.59052267-36.71568107-81.59052267-81.59052266l0-652.727456c0-44.8748416 36.71568107-81.59052267 81.59052267-81.59052267l652.727456 0c44.8748416 0 81.59052267 36.71568107 81.59052266 81.59052267L919.50181333 710.49962347C919.50181333 755.37446507 882.78613227 792.09123733 837.91129067 792.09123733L837.91129067 792.09123733z"  horiz-adv-x="1024" />

    
    <glyph glyph-name="atom" unicode="&#58919;" d="M846.31866875 383.73282216999996c35.20920058 39.06196435 60.43496133 77.53335908 75.1429582 114.48614619 16.9859083 42.88660576 16.36721631 80.12061651-1.79983125 110.63338154-18.25141465 30.56900977-51.68890635 49.72034004-99.30006914 56.89154356-40.8617956 6.18691992-88.27610185 4.58394521-141.42737109-4.78080176-17.60460029 48.79230205-39.73690107 88.95103857-65.83445508 119.49192686-30.40027558 35.54666894-64.51270401 53.54498232-101.29675693 53.54498232-36.89654239 0-70.98084756-18.11080283-101.35300166-53.85432832-26.12567637-30.70962246-48.0611206-70.89648047-65.32825254-119.57629394C291.94249766 670.24347158 244.55631377 671.93081338 203.69451817 665.77201582 156.08335537 658.57268994 122.67398604 639.42135967 104.36632666 608.8242275299999c-18.16704756-30.51276503-18.78573955-67.71865342-1.79983125-110.60525917 14.62362979-36.86842002 39.99000234-75.31169239 75.50854893-114.42990146-35.49042422-39.20257617-60.77242969-77.58960381-75.2273253-114.28928966-16.87341885-42.74599394-16.1422374-79.86751523 2.08105489-110.29591318 18.19516992-30.56900977 51.52017217-49.80470713 98.96260078-57.14464482 40.72118379-6.3556541 88.10736768-4.72455703 141.25863691 4.92141357 17.54835557-48.62356787 39.54004453-88.75418203 65.52510908-119.3794374 30.20341904-35.57479131 64.203358-53.57310469 101.12802276-53.57310469 36.81217529 0 70.89648047 18.02643574 101.29675693 53.54498233 26.06943164 30.51276503 48.17361006 70.75586865 65.77821036 119.74502812 53.15126924-10.12405078 100.39684131-12.06449473 141.00553563-5.73696211 47.21744971 7.33993682 80.59869667 26.49126709 99.30006914 57.14464482 18.19516992 30.51276503 18.81386191 67.71865342 1.7717089 110.63338155C906.33179463 306.11509599 881.27476807 344.55836836000003 846.31866875 383.73282216999996zM451.36818213 23.935290519999967c-18.98259609 24.21335566-35.3498124 56.61031992-48.73605733 96.31909864 36.89654239 10.03968369 73.68059531 22.8072375 109.59285411 38.07768164 36.05287148-15.46730068 72.78067969-28.23485362 109.56473174-38.07768164-13.61122471-39.62441162-30.17529668-71.96513115-49.35474932-96.23473154C533.26050752-25.672560060000023 490.2614123-25.672560060000023 451.36818213 23.935290519999967zM572.40683896 743.83969981c19.15133027-24.43833458 35.74352549-56.86342119 49.35474932-96.51595518-34.2811626-9.25225752-70.98084756-21.87919951-109.53660937-37.74021328-37.43086729 15.24232177-74.35553203 28.12236416-110.04281192 38.30266055 13.61122471 39.25882089 30.11905195 71.51517334 49.18601514 95.9535079C490.31765703 793.75689638 533.23238516 793.75689638 572.40683896 743.83969981zM722.49589795 417.64839404c14.9892205-11.75514873 28.68481143-23.14470586 40.91804033-34.08430605-8.32421953-7.67740518-17.01403067-15.29856651-25.98506455-22.66662569-4.92141357-4.02149795-9.89907188-8.07111826-14.93297578-12.17698418 0.47808018 12.37384073 0.67493672 24.24147802 0.67493672 35.49042422C723.19895703 394.47556494 722.97397812 405.66826641 722.49589795 417.64839404zM716.42146748 495.96917842c-4.41521104 38.61200654-11.41768037 75.64916074-20.83867207 110.436525 42.68974922 8.40858662 80.28935068 10.88335547 111.89888789 7.31181445 32.25635244-3.62778487 53.88245068-14.17367197 64.20335801-31.15958027 10.54588711-17.68896738 9.39286934-40.29934834-3.57154014-69.09664922-12.51445254-27.95362998-33.57810352-57.81958154-62.71287275-88.92291621C777.86883388 449.73601143 748.05912793 473.69626583 716.42146748 495.96917842zM512.25310127 222.70416299c-25.3382502 11.24894619-50.53588857 23.9602544-74.88985694 37.74021328-27.7848958 15.91725849-51.54829453 30.48464268-70.75586865 43.30844121-2.10917724 23.42592949-3.17782705 50.47964385-3.17782704 80.48620723 0 29.97844013 1.0686498 56.83529883 3.14970468 79.98000469 20.81054971 13.58310234 44.88329355 28.17860888 71.43080625 43.19595175 23.90400967 12.99253271 48.82042441 25.50698438 74.21492022 37.2621331 25.31012783-11.86763818 50.25466494-24.35396748 73.93369657-37.03715419 24.91641474-14.31428378 48.98915859-28.76917852 71.74015226-43.13970704 2.10917724-23.62278604 3.14970469-50.56401094 3.14970468-80.26122831 0-30.0065625-1.04052744-57.20088955-3.14970468-80.90804268-21.09177334-13.83620362-44.96766065-28.23485362-71.20582647-42.91472812C563.15458144 246.91751865000003 538.18192109 234.23433280999996 512.25310127 222.70416299zM617.06515362 558.4289499c-9.33662461 5.25888193-19.7418999 10.82711075-31.10333555 16.73280703 17.99831338 6.55251065 35.37793477 12.31759599 51.94200761 17.21088721 4.07774268-17.09839776 7.59303809-34.44989677 10.48964239-51.85764052C638.38190586 546.50506787 627.92038672 552.49513125 617.06515362 558.4289499zM386.4898874 592.2320323199999c16.87341885-5.11827012 33.9718166-10.8552331 51.21082617-17.15464248-10.68649893-5.39949375-20.92303916-10.96772256-30.65337773-16.56407284-10.88335547-5.99006338-21.34487461-11.95200527-31.27206972-17.9139463C378.81248135 558.17584863 382.38402237 575.4711029299999 386.4898874 592.2320323199999zM302.01030459 349.17043593999995c-15.12983232 11.61453691-28.96603506 23.17282822-41.45236524 34.56238623 12.71130908 11.44580273 26.49126709 22.83535987 41.28363106 34.08430605-0.36559073-10.96772256-0.5343249-22.10417842-0.5343249-33.54998115C301.33536787 372.14640761 301.56034677 360.41938213000003 302.01030459 349.17043593999995zM328.58593877 607.24937519c-9.4209917-35.82789258-16.31097158-72.86504677-20.50120371-110.3521579-32.62194317-23.22907295-62.62850567-47.49867334-89.45724111-72.30259952-29.13476924 31.04709082-50.28278731 60.91304151-62.99409639 88.95103858-13.02065508 28.71293378-14.11742724 51.23894854-3.2903165 68.89979267 10.54588711 17.35149902 31.55329336 27.64428398 64.25960273 31.49704864 9.89907188 1.1530169 20.47308135 1.74358653 31.41268154 1.74358652C272.17247539 615.6860841800001 299.22619062 612.84572549 328.58593877 607.24937519zM155.91462119 254.11684452999998c12.57069727 28.03799707 33.49373643 57.87582627 62.26291495 88.81042675 27.10995908-25.11327128 57.25713427-49.52348349 89.87907656-72.72443495 4.19023213-37.40274492 11.08021201-73.98994131 20.47308134-109.0585292-42.63350449-8.38046425-80.20498359-10.8552331-111.75827607-7.33993682-32.45320898 3.68402959-53.37624815 14.03306016-64.03462383 31.89076172C141.96592813 202.99038544999996 143.00645557 225.34766513 155.91462119 254.11684452999998zM406.11929786 209.79599737c9.78658242-5.8213292 20.41683662-11.61453691 31.80639462-17.40774375-17.80145684-6.55251065-35.09671113-12.23322891-51.71702871-16.95778594-4.07774268 17.04215303-7.50867099 34.16867315-10.29278584 51.21082617C385.98368487 220.65123046999997 396.10773565 214.99863545000005 406.11929786 209.79599737zM637.93194805 175.37422383c-16.7609294 4.72455703-34.08430606 10.37715292-51.88576289 16.95778594 10.12405078 5.20263721 20.81054971 10.9396002 31.94700644 17.2108872 10.34903057 5.73696211 20.50120372 11.50204747 30.28778613 17.21088721C645.15939628 208.41800156 641.70034472 191.26335908 637.93194805 175.37422383zM695.35781651 161.05994003c9.19601279 35.18107823 16.08599268 71.90888643 20.52932607 109.56473174 32.45320898 23.03221641 62.45977148 47.3018168 89.42911875 72.24635479 28.79730088-31.27206973 49.7484624-61.27863223 62.31915966-89.23226221 12.90816563-28.79730088 14.06118252-51.21082617 3.57154014-68.56232431-10.37715292-17.15464248-31.91888408-27.72865107-64.00650146-31.49704863-9.4209917-1.09677217-19.48879864-1.6873418-29.92219542-1.6873418C752.78368497 151.92017197999996 725.30813428 154.98550957999998 695.35781651 161.05994003z"  horiz-adv-x="1024" />

    
    <glyph glyph-name="github51" unicode="&#59149;" d="M268.775 615.4125c-44.634375 0-83.053125-14.765625-115.2-44.296875-33.46875-31.5-50.23125-70.903125-50.23125-118.153125 0-31.5 9.1125-61.059375 27.50625-88.621875 16.425-25.59375 33.553125-42.01875 56.053125-49.246875l0-1.96875c-22.5-9.16875-32.484375-32.146875-32.484375-68.934375 0-28.2375 9.984375-49.246875 32.484375-63.028125l0-1.96875c-62.1-20.334375-90.534375-58.078125-90.534375-113.23125 0-47.925 20.86875-83.053125 61.59375-105.35625 32.146875-17.71875 73.4625-26.578125 123.35625-26.578125 121.44375 0 182.278125 50.878125 182.278125 152.634375 0 63.675-46.85625 102.740625-140.7375 117.16875-21.65625 3.2625-38.053125 11.165625-49.190625 23.625-8.521875 8.521875-12.76875 17.071875-12.76875 25.59375 0 24.271875 13.134375 38.41875 39.403125 42.35625 40.05 5.90625 72.703125 24.440625 97.9875 55.63125s37.9125 67.78125 37.9125 109.8c0 13.134375-3.965625 27.253125-9.225 42.328125 17.071875 3.9375 29.053125 7.565625 38.053125 10.828125l0 101.41875c-39.6-15.75-76.44375-23.625-107.971875-23.625-27.5625 15.75-56.109375 23.625-88.25625 23.625zM279.63125 124.04062499999998c55.153125 0 82.715625-16.734375 82.715625-50.23125 0-35.465625-25.284375-53.15625-75.825-53.15625-57.76875 0-86.653125 17.071875-86.653125 51.1875 0 34.790625 26.578125 52.2 79.7625 52.2zM272.7125 384c-41.34375 0-62.04375 22.640625-62.04375 67.95 0 48.571875 20.671875 72.871875 62.04375 72.871875 19.6875 0 35.128125-7.565625 46.265625-22.640625 9.196875-13.78125 13.78125-30.20625 13.78125-49.246875 0-45.95625-20.025-68.934375-60.075-68.934375zM572.103125 834c-19.040625 0-35.26875-7.228125-48.740625-21.65625s-20.19375-31.8375-20.19375-52.2c0-19.6875 6.721875-36.759375 20.19375-51.215625s29.7-21.65625 48.740625-21.65625c18.365625 0 34.3125 7.2 47.75625 21.65625s20.19375 31.5 20.19375 51.215625c0 20.3625-6.721875 37.74375-20.19375 52.171875s-29.390625 21.65625-47.75625 21.65625zM627.25625 609l-111.2625 0c1.321875-12.6-0.5625-31.66875-0.5625-62.521875l0-306.225c0-31.5 1.884375-56.925 0.5625-66.825l111.2625 0c-1.321875 14.4-4.753125 39.2625-4.753125 72.73125l0 302.2875c0 28.884375 3.43125 47.953125 4.753125 60.553125zM872.646875 267.81562499999995c-28.884375 0-43.14375 21.99375-43.14375 65.98125l0 181.603125 43.81875 0c7.875 0 14.9625 0.421875 23.821875-0.225s12.43125-0.225 16.93125-0.225l0 94.021875-84.6 0 0 41.85c0 15.75 2.475 30.15 4.44375 39.15l-114.215625 0c1.96875-9 1.771875-22.753125 1.771875-41.11875l0-39.88125-49.5 0 0-94.021875c13.5 1.96875 25.565625 2.953125 34.0875 2.953125l15.4125-0.984375 0-178.228125c0-55.153125 7.003125-95.5125 20.784375-121.10625 18.39375-34.14375 50.653125-51.215625 98.55-51.215625 34.14375 0 64.265625 6.553125 86.765625 19.6875l0 98.465625c-18-11.165625-34.621875-16.734375-54.95625-16.734375z"  horiz-adv-x="1024" />

    
    <glyph glyph-name="vip" unicode="&#58906;" d="M56.64178344 755.01869719l404.10696375 0 0-34.04332219c-24.32004563-3.29866688-41.31799875-8.5142175-50.55358781-15.89726906-9.42524531-7.35257156-14.13956156-18.82000969-14.13956157-34.53100969 0-22.27785187 15.64665188-69.59712094 46.97382375-141.92394 31.32717094-72.21844312 75.28342594-162.72179531 132.0618075-271.43893312 59.2405275 131.46235781 99.99294469 226.256685 121.89148407 284.36943468 21.86805938 58.26853875 32.80378219 98.20475531 32.80378218 119.99153344 0 18.17653312-5.65582406 31.90630031-16.76088375 40.9115925-11.32858219 9.188175-29.98941656 15.22331156-56.22634593 18.03429094L656.79926656 755.01869719l311.85945094 0 0-34.53100969c-30.58886625-2.29281-56.04007594-11.81288344-76.60424719-28.49925937-20.36096812-16.872645-43.956255-50.72631094-70.36252031-101.98772344-35.47590469-69.73597688-74.9210475-152.07394312-118.6910325-247.1967825-43.56000844-95.09235844-88.10216625-196.45353844-133.36230844-303.83292188-21.19410188-38.80166531-88.30536937-40.12248656-106.81041375 0-24.50970187 50.24200969-58.0788825 119.34805594-100.56191343 207.73470657C210.20588469 562.4903690599999 110.03683062 720.4876875 62.12488531 720.4876875L56.64178344 720.4876875 56.64178344 755.01869719z"  horiz-adv-x="1024" />

    
    <glyph glyph-name="yanse" unicode="&#58985;" d="M190.35392 343.57557333m-26.88 0a26.25 26.25 0 1 1 53.76 0 26.25 26.25 0 1 1-53.76 0ZM246.99392 479.34453333m-42.15456 0a41.1665625 41.1665625 0 1 1 84.30912 0 41.1665625 41.1665625 0 1 1-84.30912 0ZM414.98144 589.8136533300001m-54.39456 0a53.1196875 53.1196875 0 1 1 108.78912 0 53.1196875 53.1196875 0 1 1-108.78912 0ZM634.66496 589.8136533300001m-68.31456 0a66.7134375 66.7134375 0 1 1 136.62912 0 66.7134375 66.7134375 0 1 1-136.62912 0ZM980.85344 656.35125333l-0.7248 0.62976c-10.00608 8.69088-25.16544 7.62432-33.85632-2.38272L584.2784 237.78645332999997l-45.76224-89.9808 82.09824 57.15168 362.62272 417.5376C991.928 632.50197333 990.86048 647.6613333299999 980.85344 656.35125333zM918.83552 424.53333333c-12.87456 0-23.42016-9.9408-24.3984-22.5648l-0.08064 0.00576c0 0-33.92064-179.84064-181.76064-275.83968-159.50016-103.57056-342.07872-56.9616-375.9984 2.87808-18.63936 32.88288-47.04 88.32-63.19968 101.76096-43.39584 36.09408-153.12-13.92-176.16 40.8-42.82176 101.7024 58.24032 365.28 308.80032 430.56 175.3008 46.46592 324.56736-9.50976 399.43872-71.88l0 0.0096c4.152-3.5424 9.53568-5.68608 15.42144-5.68608 13.1328 0 23.77824 10.64544 23.77824 23.77824 0 7.88352-3.83904 14.86752-9.74784 19.19424C803.3984 694.0542933300001 604.4912 846.17397333 326.6768 721.3336533300001c-303.36-136.32-322.56-420.48-259.2-491.52s156.09408-14.84736 176.64-38.4c13.12032-15.04032 30.21408-54.96576 52.63968-91.20096 32.47968-52.47936 194.92416-162.68352 442.7184-15.67872 148.69824 88.21536 201.91968 291.35904 203.83968 313.59936l-0.0816 0.00672c0.04896 0.63168 0.0816 1.26912 0.0816 1.91328C943.31552 413.57301333 932.3552 424.53333333 918.83552 424.53333333z"  horiz-adv-x="1037" />

    
    <glyph glyph-name="download" unicode="&#59054;" d="M391.38165448 725.93326272l240.95928598 0 0-64.1844201-240.95928598 0 0 64.1844201ZM391.38165448 788.7264396l240.95928598 0 0-33.48092532-240.95928598 0 0 33.48092532ZM861.69471958 252.86553432999995L833.07556085 93.04951446999996 190.59307034 93.04951446999996 162.00173642 252.86553432999995 90.5339419 252.86553432999995 90.5339419-1.8628535200000442 933.85644986-1.8628535200000442 933.85644986 252.86553432999995ZM843.99050449 537.55120495L632.34094046 537.55120495 632.34094046 629.63133654 391.38165448 629.63133654 391.38165448 536.8294444 182.40918149 536.8294444 511.15260556 176.78976975Z"  horiz-adv-x="1024" />

    
    <glyph glyph-name="strong" unicode="&#58999;" d="M407.92564411 48.99094446000004L412.14063018 48.3888316C437.02898349 47.184540800000036 455.49432205 46.58242795000001 467.53703644 46.58242795000001 539.7936441 46.58242795000001 592.3795842 59.72889669999995 625.2964783 86.02228821000006 658.21337241 112.31561545 674.671625 154.56503383999996 674.671625 212.77171179000004 674.671625 265.35849481 659.21698089 304.59721875 628.30717275 330.48918054 597.39743054 356.38114151 551.03349741 369.32692795 489.21394705 369.32692795 471.14977866 369.32692795 456.09656509 369.12618053999995 444.05378643 368.72475 432.01100696 368.32338455 419.96842276 367.72120659999996 407.92564411 366.91834633999997L407.92564411 48.99094446000004ZM408.52782205 438.57245224C411.73919964 438.1710217 415.75337241 437.86999741 420.57053644 437.66925 425.38763455 437.46856768 432.4124375 437.36822571 441.6452691 437.36822571 505.87333679 437.36822571 553.14047134 450.31401214 583.44810071 476.20590884 613.75573089 502.09786982 628.90935071 542.54088455 628.90935071 597.53618491 628.90935071 645.7072352499999 614.85961545 681.43355731 586.75981946 704.71625519 558.66008856 727.99895224 515.50746875 739.6401059 457.3007908 739.6401059 447.66652866 739.6401059 432.41263196 738.8373099099999 411.53845225 737.23158856L407.92564411 737.23158856 408.52782205 438.57245224ZM155.02884634 805.875L525.34202429 805.875C616.06423089 805.875 684.3055625 789.71783679 730.06803125 757.40311981 775.83056509 725.08833856 798.71144268 676.81766143 798.71144268 612.58959375 798.71144268 564.01711285 783.85897571 523.3733507100001 754.1534592 490.657204 724.44794269 457.94099304 680.69327429 433.9561658 622.88796179 418.70200955 693.53884893 417.49771875 748.53330554 399.433875 787.8730191 364.50982899999997 827.2127335 329.58578384 846.88229775 281.41544705 846.88229775 219.99739150000005 846.88229775 142.12082464000002 820.18793054 82.40967535000004 766.79828644 40.86212759 713.4087066-0.6854209900000114 636.53685071-21.458869820000018 536.18051215-21.458869820000018L155.02884634-21.458869820000018 155.02884634 38.75463454999999 227.88724304 45.37813715000004 247.75768491 64.64646616000005 247.75768491 722.17818054 227.88724304 739.6401059 155.02884634 745.66149482 155.02884634 805.875Z"  horiz-adv-x="1024" />

    
    <glyph glyph-name="group" unicode="&#58951;" d="M34.45656213 145.22855360000005l397.95204694 0L432.408608 622.7725376000001 34.45656213 622.7725376000001 34.45656213 145.22855360000005zM87.5167616 569.71233813l291.83055467 0 0-371.4224928-291.83055467 0L87.5167616 569.71233813zM591.58920853 622.7725376000001l0-477.543984 397.95313814 0L989.54234667 622.7725376000001 591.58920853 622.7725376000001zM936.4832384 198.28875413000003l-291.83055467 0L644.65268373 569.71233813l291.83055467 0L936.4832384 198.28875413000003zM565.0585632 808.48378347c0 29.302032-23.73088 53.06020053-53.05910827 53.06020053-29.27583573 0-53.06020053-23.75816853-53.06020053-53.06020053 0-19.63110613 10.68167893-36.75934187 26.53064533-45.93689707L485.46989973 5.454204799999957c-15.8489664-9.17755627-26.53064533-26.3068832-26.53064533-45.93689707 0-29.3031232 23.7843648-53.06020053 53.06020053-53.06020053 29.32822827 0 53.05910827 23.75816853 53.05910827 53.06020053 0 19.63983787-10.66748907 36.77571413-26.53064533 45.95108694L538.5279168 762.5326965300001C554.39107307 771.70697813 565.0585632 788.8428544 565.0585632 808.48378347z"  horiz-adv-x="1024" />

    
    <glyph glyph-name="img" unicode="&#58954;" d="M427.6145024 231.03597014000002L349.16493547 339.57724800999995C338.77152641 353.95736426999997 321.92075947 353.95721601 311.52745601 339.57724800999995L166.90305387 139.47777068000005C156.5096448 125.09765333999997 162.71110507 113.44053226999995 180.7541664 113.44053226999995L443.41864427 113.44053226999995 843.36921812 113.44053226999995C861.4224096 113.44053226999995 867.48577707 125.07215999000005 856.99141332 139.42049921L627.80094081 452.779408C617.23710081 467.22273919 600.2918496 467.1277472 589.79748587 452.779408L427.6145024 231.03597014000002 427.6145024 231.03597014000002ZM257.35579521 559.0678912000001a62.29333333 62.29333333 0 1 1 127.32210239 0 62.29333333 62.29333333 0 1 1-127.32210239 0ZM82.22029653 718.22051947L941.77970453 718.22051947C932.83477333 718.22051947 925.79683307 725.3427648100001 925.79683307 734.07920001L925.79683307 33.92079998999998C925.79683307 42.675572269999975 932.86973547 49.77948053 941.77970453 49.77948053L82.22029653 49.77948053C91.16522667 49.77948053 98.20316693 42.65723519000005 98.20316693 33.92079998999998L98.20316693 734.07920001C98.20316693 725.32442773 91.1302656 718.22051947 82.22029653 718.22051947ZM34.54211628 33.92079998999998C34.54211628 7.666775479999956 55.83539627-13.88157013 82.22029653-13.88157013L941.77970453-13.88157013C968.0912512-13.88157013 989.45788372 7.578731729999959 989.45788372 33.92079998999998L989.45788372 734.07920001C989.45788372 760.3332245199999 968.16460373 781.88157013 941.77970453 781.88157013L82.22029653 781.88157013C55.9087488 781.88157013 34.54211628 760.42126827 34.54211628 734.07920001L34.54211628 33.92079998999998Z"  horiz-adv-x="1024" />

    
    <glyph glyph-name="theme" unicode="&#58964;" d="M729.70091738 17.595877340000015H293.3217916c-36.16065 0-65.57925498 29.41950498-65.57925498 65.57925498V460.01782636l-29.80466191-19.06706514c-6.30739336-4.35731221-15.04721513-7.00571513-23.93011934-7.00571513-21.30601377 0-38.35100479 14.15631445-41.45655674 34.4508416l-3.0578581 19.16335371c-5.03133662 31.12841338-11.9407623 73.76473828-12.0136544 100.1506834-0.07199209 26.14477148 22.36519512 51.35184844 36.52150957 61.10135596L324.83536279 765.62269824c6.71684766 4.47789815 12.66338144 4.47789815 18.94647744 4.47789814l38.90444326-0.21687539 14.56486875 0.04859473c6.86173184 0.91519717 12.88025771-2.527817 17.50213917-7.12630195a24.68423496 24.68423496 0 0 0 7.31888086-17.45444531c0.14398417-48.79973408 38.92873974-87.03015293 88.30620966-87.03015206 49.37746992 0 88.18562286 38.23041797 88.30620967 87.03015206a24.76342617 24.76342617 0 0 0 7.29458262 17.45444531c4.64617969 4.62188232 10.66470557 8.30607012 17.5264374 7.12630195l14.61346348-0.04859473 39.0250292 0.21687539c6.42798018 0 12.49510078 0 19.04276689-4.52559287l174.78292412-116.64223593c22.9915248-16.49155253 32.7419332-35.34174141 32.33247891-61.63139707-0.57773496-5.97083115-10.15986182-89.70285323-15.14350372-119.17005293-3.22613877-19.16335372-21.6911707-33.60853565-42.94948974-33.60853652-8.42575606 0-16.32237188 2.35953545-22.87093886 6.86173183l-27.05996865 17.28526377v-375.49464434c0.0027-36.15975-29.41680498-65.57925498-65.57745587-65.57925498z m-477.3065414 512.14253994c4.06844473 0 8.13688857-1.01148662 11.82107548-3.03355986 7.92091318-4.30961748 12.83166299-12.61478672 12.83166299-21.61917862v-421.91054648c0-8.98009453 7.29458261-16.27467714 16.27467716-16.27467715h436.37912578c8.98009453 0 16.27467714 7.29458261 16.27467714 16.27467715V503.64134052a24.6644376 24.6644376 0 0 0 12.80736563 21.61917862c7.94431055 4.28532011 17.50214004 3.99645263 25.1098875-0.84230596l57.41806992-36.66549375c5.05563398 34.78830381 12.7596709 101.98107773 12.85595947 102.72709512-0.02429737 6.28309599-0.98718926 10.54501875-11.24334052 17.91159345L674.49750049 720.77172119l-8.01720264-0.04769385c-5.68196367-0.04769472-12.71107617-0.12058682-20.80027002-0.14398418-11.89306758-63.36460283-68.08367461-111.56230459-135.29984678-111.56230547-67.1927748 0-123.38338096 48.19770176-135.29984589 111.56230547-8.04059912 0.02429737-14.99862041 0.09628945-20.65628672 0.14398418l-7.82462373 0.04769385-164.69595352-112.59808858c-6.21110479-4.28532011-14.85463623-15.91381758-15.11920723-20.36741923 0.07199209-22.43808721 6.6205582-62.85885996 11.38732471-92.37465352l1.25176026-7.82462373 59.68131503 38.23041796a24.5546499 24.5546499 0 0 0 13.28971201 3.90106319z"  horiz-adv-x="1024" />

    
    <glyph glyph-name="overline" unicode="&#58938;" d="M837.8784338 392.6585736h-651.7568676a27.61681602 27.61681602 0 1 1 0-55.23363334h651.7568676a27.61681602 27.61681602 0 1 1 0 55.23363334zM642.50602786 31.309099859999947c-29.74883513 3.32506427-55.68654829 8.08620386-68.2466764 14.39388431-12.57117442 6.27454027-23.59580798 17.00091221-23.59580798 32.23434862V293.23803435h-88.37381311v-215.30070156c0-15.23343638-4.28612948-25.78305985-17.50906121-31.73724592s-33.51576802-10.91416543-63.28669702-14.89098701c-6.60594207-1.3145609-9.32343681-6.62803595-9.32343681-15.86309981 0-4.63962516 0.91687873-10.25136183 2.27562481-16.8462576 21.14343469 1.3145609 43.93283205 2.46341959 68.09202309 3.46867258a1716.09792816 1716.09792816 0 0 0 141.91729601 0c23.45220097-1.01629929 45.78868212-2.15411168 66.96525698-3.46867258 1.29246701 6.60594207 1.99945709 12.20663245 1.99945708 16.8462576 0 10.58276364-3.63437348 15.86309981-10.91416544 15.86309981zM224.48684676 623.9217942099999a12.15139967 12.15139967 0 0 1 6.42919486 6.93734386 656.28602594 656.28602594 0 0 0 22.80044368 43.65666433c7.29083955 12.53803424 15.88519239 22.81148996 25.80515373 30.73199292 9.89786746 7.94259684 21.64053738 11.40022183 35.21696479 15.36599712 13.53223964 3.96577526 30.24593782 3.44657869 50.0748116 3.44657869H462.28973037v-287.21489162h88.37381311v287.21489162h111.67135817c19.82887378 0 36.53152438 0.51919658 50.07481162-3.44657869 13.55433353-3.95472769 25.10920996-8.6716808 34.74195597-16.61427765a109.78236923 109.78236923 0 0 0 25.26386326-30.10232951 442.53186655 442.53186655 0 0 0 21.83937845-43.33630882c1.3145609-3.31401797 3.62332589-5.46812965 6.92629757-6.78268926 3.32506427-1.3256072 6.29663415-1.90003654 8.93680224-1.90003783 3.96577526 0 7.44549414 0.69594378 10.41706274 2.02155095 2.98261618 1.3256072 6.10883937 2.67330827 9.43390493 3.98786917-7.29083955 22.46904187-12.40547351 42.99385943-15.388091 61.50817362a997.55255074 997.55255074 0 0 1-8.43969824 46.61718533c-2.65121438 12.56012813-5.45708336 22.31438726-8.41760566 29.26277871-2.98261618 6.93734386-7.78794224 10.40601645-14.39388559 10.40601646-5.29138246 0-12.08511932-0.3424481-20.3259765-1.0052517-8.28504494-0.66280359-17.34336031-1.3256072-27.27436793-1.98841079-9.91996004-0.66280359-19.85096767-2.05469115-29.74883512-2.72854103-9.91996004-0.66280359-18.83466839-1.71224305-26.77726525-1.71224306H347.93401634c-8.58330656 0-17.840463 1.06048575-27.74937675 1.71224306-9.94205392 0.67384989-19.67422048 1.69014917-29.27382502 2.35295276-9.57751195 0.67384989-18.68001508 1.51340197-27.27436795 2.17620428-8.58330656 0.66280359-15.21134251 1.09362593-19.82887507 1.09362593-6.62803595 0-11.41126813-3.28087779-14.39388431-9.88681987-2.96052229-6.62803595-5.77743757-16.00670683-8.41760565-28.24647944-2.65121438-12.22872633-5.63383056-27.60576973-8.93680224-46.10903763-3.32506427-18.51431419-8.28504494-39.65774886-14.890987-63.46344422 5.30242877-3.96577526 11.56592274-5.95418606 18.85676227-5.95418477 2.65121438 0.01104629 5.45708336 0.66280359 8.46179214 1.99945708z"  horiz-adv-x="1024" />

    
    <glyph glyph-name="exit-full-screen" unicode="&#59642;" d="M142.4 799.2l-44.8-44.8 173.6-174.4-68-68H384V692.8l-67.2-67.2zM752.8 580l173.6 174.4-44.8 44.8-174.4-173.6-67.2 67.2V512h180.8zM270.4 188.79999999999995l-169.6-170.4 44.8-49.6 170.4 174.4 68-68V256H203.2zM820.8 256H640v-180.8l68 68 170.4-174.4 44.8 49.6-169.6 170.4z"  horiz-adv-x="1024" />

    
    <glyph glyph-name="horizontal" unicode="&#59376;" d="M962.23301298 384c0-28.40586801-23.07976821-51.48563623-51.48563622-51.48563623l-804.59622112 0c-28.40586801 0-51.48563623 23.07976821-51.48563623 51.48563623s23.07976821 51.48563623 51.48563623 51.48563623L910.74737676 435.48563623c28.40586801 0 51.48563623-23.07976821 51.48563622-51.48563623z"  horiz-adv-x="1024" />

    
    <glyph glyph-name="quote" unicode="&#58934;" d="M310.726085 360.026512h151.998727v-290.768856H171.941361V326.98420899999996c-8.876637 162.934578 72.698904 286.334186 244.522282 370.071112l66.084604-99.123259c-110.173443-57.307705-167.481148-136.606312-171.825811-237.90555h0.003649z m370.084491 0h152.001159v-290.768856h-290.783451V326.98420899999996c-8.883935 162.934578 72.696471 286.334186 244.519849 370.071112l66.087038-99.123259c-114.611762-61.754538-171.824595-141.054361-171.824595-237.90555z m0 0"  horiz-adv-x="1024" />

    
    <glyph glyph-name="bg" unicode="&#58950;" d="M789.751935 411.598762a37.500578 37.500578 0 0 1-6.911369 43.772005L519.312613 718.834726a37.244601 37.244601 0 0 1-52.667194 0.383965L175.983941 428.621208a37.116613 37.116613 0 0 1-7.807287-40.508303c10.559036 10.879007 29.757285 17.790377 56.954803 18.750289l508.945558 17.5344c26.237606 0.895918 44.987895-3.83965 55.67492-12.798832zM473.4288 764.718539L373.597909 864.54943a18.558307 18.558307 0 0 0 0.447959 25.917635 18.558307 18.558307 0 0 0 25.981629 0.447959l178.799685-178.799685 230.378978-230.378977c29.181337-29.245331 29.309326-76.473022 0.383965-105.462377l-290.661477-290.597483a74.553197 74.553197 0 0 0-105.462377 0.319971L150.002312 349.52442599999995a74.617191 74.617191 0 0 0-0.383965 105.462376L440.279824 745.520291a73.593285 73.593285 0 0 0 33.21297 19.198248z m0 0a74.873168 74.873168 0 0 0 72.313401-19.518219l33.084981-33.084981 33.084981-33.148975a18.558307 18.558307 0 0 0-0.383965-25.917635 18.558307 18.558307 0 0 0-25.981629-0.447959L473.4288 764.718539z m387.996595-576.779368c0-34.684835-27.709472-62.714277-61.882353-62.714278a62.330312 62.330312 0 0 0-61.818359 62.714278c0 34.620841 61.818359 118.773162 61.818359 118.773161s61.882353-84.152321 61.882353-118.773161zM0-0.01167899999995825h1023.906569v-127.988321H0v127.988321z"  horiz-adv-x="1024" />

    
    <glyph glyph-name="table" unicode="&#58883;" d="M513.7 775.9h385.5c44.3 0 59.5-15 59.5-59 0-221.1 0-442.3-0.1-663.4 0-44.6-14.8-59.6-58.8-59.6-259.2-0.1-518.5-0.1-777.7 0-41 0-57.1 15.7-57.1 56.8-0.2 223.4-0.2 446.8 0 670.1 0 39.6 16.2 55 56.5 55.1 130.7 0.1 261.4 0 392.2 0zM345.3 202.79999999999995h-222v-150.7h222V202.79999999999995z m277-151.6V202.10000000000002H401.5v-150.9h220.8z m55.9 1.2h222.2V202.5H678.2v-150.1zM123.6 405.1v-149.4h221V405.1h-221zM678 253.70000000000005c72.4 0 142.3-0.2 212.2 0.5 3.8 0 10.7 6.6 10.7 10.3 0.7 46.7 0.5 93.3 0.5 139.8H677.9c0.1-50.4 0.1-98.7 0.1-150.6z m-277.5 1.8h222.1V404.4H400.5v-148.9z m-55.7 200.9V606.6H121.9c0-46.8-0.5-91.5 0.6-136.1 0.1-4.8 9.2-13.4 14.2-13.5 68.6-0.9 137.3-0.6 208.1-0.6z m56.3 2.1h221V607.2h-221v-148.7z m498.8-0.7V607.3H678.5v-149.5h221.4z"  horiz-adv-x="1024" />

    
    <glyph glyph-name="preview" unicode="&#58893;" d="M510.72 226.88c-90.24 0-164.8 73.06666667-164.8 164.8s74.45333333 163.30666667 164.8 163.30666667 164.8-73.06666667 164.8-164.8-73.17333333-163.30666667-164.8-163.30666667z m0 277.97333333c-63.04 0-113.17333333-50.13333333-113.17333333-113.17333333s50.13333333-113.17333333 113.17333333-113.17333333 113.17333333 50.13333333 113.17333333 113.17333333-50.13333333 113.17333333-113.17333333 113.17333333zM787.94666667 592.3199999999999m-26.66666667 0a26.66666667 26.66666667 0 1 1 53.33333333 0 26.66666667 26.66666667 0 1 1-53.33333333 0ZM896.32 526.0799999999999l-38.4-34.24c37.86666667-42.66666667 59.73333333-81.6 59.73333333-100.90666667 0-55.89333333-183.36-276.48-406.93333333-276.48S103.78666667 336.53333333 103.78666667 390.93333333s183.36 276.48 406.93333333 276.48c97.70666667 0 187.84-42.24 258.24-94.29333333l33.70666667 41.28c-79.46666667 61.01333333-181.33333333 109.01333333-291.94666667 109.01333333C258.56 723.41333333 52.26666667 474.13333333 52.26666667 390.93333333c0-110.29333333 206.29333333-332.37333333 458.45333333-332.37333333s458.45333333 249.28 458.45333333 332.37333333c0 29.97333333-26.77333333 81.49333333-72.85333333 135.14666667zM879.68 505.92m-25.81333333 0a25.81333333 25.81333333 0 1 1 51.62666666 0 25.81333333 25.81333333 0 1 1-51.62666666 0Z"  horiz-adv-x="1024" />

    
    <glyph glyph-name="full-screen" unicode="&#58886;" d="M611.03217778 453.90506667c-8.73813333 0-14.56355555 2.91271111-20.38897778 8.73813333-11.65084445 11.65084445-11.65084445 29.12711111 0 40.77795555l250.49315555 250.49315556c11.65084445 11.65084445 29.12711111 11.65084445 40.77795556 0s11.65084445-29.12711111 0-40.77795556l-250.49315556-250.49315555c-5.82542222-5.82542222-14.56355555-8.73813333-20.38897777-8.73813333zM867.35075555 573.32622222c-17.47626667 0-29.12711111 11.65084445-29.1271111 29.12711111V710.2236444499999h-107.77031112c-17.47626667 0-29.12711111 11.65084445-29.12711111 29.1271111s11.65084445 29.12711111 29.12711111 29.12711112h136.89742222c17.47626667 0 29.12711111-11.65084445 29.12711112-29.12711112v-136.89742222c0-17.47626667-11.65084445-29.12711111-29.12711112-29.12711111zM159.56195555 5.347555550000038c-8.73813333 0-14.56355555 2.91271111-20.38897777 8.73813334-11.65084445 11.65084445-11.65084445 29.12711111 0 40.77795556l250.49315555 250.49315555c11.65084445 11.65084445 29.12711111 11.65084445 40.77795556 0s11.65084445-29.12711111 0-40.77795555l-250.49315556-250.49315556c-5.82542222-5.82542222-11.65084445-8.73813333-20.38897778-8.73813334zM293.54666667-0.4778666700000258H156.64924445c-17.47626667 0-29.12711111 11.65084445-29.12711112 29.12711112v136.89742222c0 17.47626667 11.65084445 29.12711111 29.12711112 29.12711111s29.12711111-11.65084445 29.1271111-29.12711111v-107.77031112h107.77031112c17.47626667 0 29.12711111-11.65084445 29.12711111-29.1271111s-11.65084445-29.12711111-29.12711111-29.12711112zM861.52533333 2.434844450000014c-8.73813333 0-14.56355555 2.91271111-20.38897778 8.73813333l-250.49315555 250.49315555c-11.65084445 11.65084445-11.65084445 29.12711111 0 40.77795556s29.12711111 11.65084445 40.77795555 0l250.49315556-250.49315556c11.65084445-11.65084445 11.65084445-29.12711111 0-40.77795555-5.82542222-5.82542222-14.56355555-8.73813333-20.38897778-8.73813333zM867.35075555-0.4778666700000258h-136.89742222c-17.47626667 0-29.12711111 11.65084445-29.12711111 29.12711112s11.65084445 29.12711111 29.12711111 29.1271111h107.77031112v107.77031112c0 17.47626667 11.65084445 29.12711111 29.1271111 29.12711111s29.12711111-11.65084445 29.12711112-29.12711111v-136.89742222c0-17.47626667-11.65084445-29.12711111-29.12711112-29.12711112zM412.96782222 453.90506667c-8.73813333 0-14.56355555 2.91271111-20.38897777 8.73813333L139.17297778 713.13635555c-11.65084445 11.65084445-11.65084445 29.12711111 0 40.77795556s29.12711111 11.65084445 40.77795555 0l250.49315556-250.49315556c11.65084445-11.65084445 11.65084445-29.12711111 0-40.77795555-2.91271111-5.82542222-11.65084445-8.73813333-17.47626667-8.73813333zM156.64924445 573.32622222c-17.47626667 0-29.12711111 11.65084445-29.12711112 29.12711111V739.35075555c0 17.47626667 11.65084445 29.12711111 29.12711112 29.12711112h136.89742222c17.47626667 0 29.12711111-11.65084445 29.12711111-29.12711112s-11.65084445-29.12711111-29.12711111-29.1271111H185.77635555v-107.77031112c0-17.47626667-14.56355555-29.12711111-29.1271111-29.12711111z"  horiz-adv-x="1024" />

    
    <glyph glyph-name="checked" unicode="&#58896;" d="M883.37066667 806.34346667H177.03786667c-43.69066667 0-80.0992-36.4096-80.0992-80.10026667V12.629333330000009c0-43.69066667 36.40853333-80.0992 80.0992-80.0992h713.61493333c43.69066667 0 80.0992 36.40853333 80.0992 80.0992V726.2432c-7.28213333 43.69066667-43.69066667 80.10026667-87.38133333 80.10026667z m29.12746666-786.432c0-14.56426667-14.56426667-29.12746667-29.12746666-29.12746667H177.03786667c-14.5632 0-29.1264 14.5632-29.1264 29.12746667V726.2432c0 14.56426667 14.5632 29.12746667 29.1264 29.12746667h713.61493333c14.5632 0 29.1264-14.5632 29.1264-29.12746667v-706.33173333h-7.28106667zM468.30933333 143.70133333c-14.5632 0-29.12746667 7.28213333-36.40853333 14.5632l-174.76266667 174.76266667c-21.84533333 21.84533333-21.84533333 58.25493333 0 80.10026667 21.84533333 21.84533333 58.25386667 21.84533333 80.0992 0l167.48053334-167.4816c21.84533333-21.84533333 21.84533333-58.25386667 0-80.0992-7.28106667-14.5632-21.84533333-21.84533333-36.40853334-21.84533334zM468.30933333 143.70133333c-14.5632 0-29.12746667 7.28213333-36.40853333 14.5632-29.12746667 29.12746667-29.12746667 58.25493333 0 80.10026667L766.86186667 580.608c21.84533333 21.84533333 58.25493333 21.84533333 80.10026666 0 21.84533333-21.84533333 21.84533333-58.25386667 0-80.0992L504.71786667 158.26453332999995c-7.28106667-7.28106667-21.84533333-14.5632-36.40853334-14.5632z"  horiz-adv-x="1024" />

    
    <glyph glyph-name="html" unicode="&#58926;" d="M626.7 777H173c-15.4 0-28 12.6-28 28s12.6 28 28 28h453.7c15.4 0 28-12.6 28-28s-12.6-28-28-28zM851.3-62.60000000000002H173.5c-15.4 0-28 12.6-28 28s12.6 28 28 28h677.8c15.4 0 28-12.6 28-28s-12.6-28-28-28zM173-62.60000000000002c-15.4 0-28 12.6-28 28V801.1c0 15.4 12.6 28 28 28s28-12.6 28-28v-835.6c0-15.5-12.6-28.1-28-28.1zM854.3-62.60000000000002c-15.4 0-28 12.6-28 28v591c0 15.4 12.6 28 28 28s28-12.6 28-28v-591c0-15.4-12.6-28-28-28zM847 547.3H629c-15.4 0-28 12.6-28 28V803.8c0 15.4 29.1 19.7 44.5 19.7L875 575.3c0-15.4-12.6-28-28-28zM412.8 263.29999999999995L305 330.20000000000005V356l107.8 72.2v-38.3l-77.5-46.3 77.5-43.7v-36.6zM533.1 454.9l-33.9-228.1H476l33.9 228.1h23.2zM596.3 263.29999999999995v36.5l76.6 43.7-76.6 46.3v38.3L704.1 356v-25.8l-107.8-66.9z"  horiz-adv-x="1024" />

    
    <glyph glyph-name="ul" unicode="&#58916;" d="M149.3 746.7c47.1 0 85.3-38.2 85.3-85.3 0-47.1-38.2-85.3-85.3-85.3S64 614.2 64 661.3c0 47.2 38.2 85.4 85.3 85.4zM149.3 469.3c47.1 0 85.3-38.2 85.3-85.3s-38.2-85.3-85.3-85.3S64 336.9 64 384s38.2 85.3 85.3 85.3zM149.3 192c47.1 0 85.3-38.2 85.3-85.3 0-47.1-38.2-85.3-85.3-85.3S64 59.5 64 106.70000000000005c0 47.1 38.2 85.3 85.3 85.3zM362.7 704h554.7c23.6 0 42.7-19.1 42.7-42.7s-19.1-42.7-42.7-42.7H362.7c-23.6 0-42.7 19.1-42.7 42.7s19.1 42.7 42.7 42.7zM362.7 426.7h554.7c23.6 0 42.7-19.1 42.7-42.7s-19.1-42.7-42.7-42.7H362.7c-23.6 0-42.7 19.1-42.7 42.7s19.1 42.7 42.7 42.7zM362.7 149.29999999999995h554.7c23.6 0 42.7-19.1 42.7-42.7s-19.1-42.7-42.7-42.7H362.7c-23.6 0-42.7 19.1-42.7 42.7s19.1 42.7 42.7 42.7z"  horiz-adv-x="1024" />

    
    <glyph glyph-name="link" unicode="&#59053;" d="M878 750C812 822 692 822 626 750L524 654c-60-66-66-162-18-234l-30-30c-72 48-168 42-234-18L146 270C74 198 74 84 146 18c72-72 186-72 252 0 0 0 108 108 108 114 48 60 54 150 6 216l30 30c72-48 168-42 228 18 0 0 108 108 108 114 72 72 66 174 0 240z m-420-594l-96-96c-48-48-126-48-168 0-48 48-48 126 0 168L290 324c42 42 102 48 144 18-12-12-12-30 0-42s30-12 42 0c24-42 18-102-18-144z m378 384L740 444c-36-36-96-42-144-18l6 6c12 12 12 30 0 42s-30 6-42-6l-6-6c-30 48-24 108 12 150l96 96c48 48 126 48 168 0 54-48 54-120 6-168z"  horiz-adv-x="1024" />

    
    <glyph glyph-name="dayin" unicode="&#58963;" d="M866.0764448 618.38222187h-50.51733333V748.08888853a96.0284448 96.0284448 0 0 1-101.03466667 91.02222294H299.008a86.92622187 86.92622187 0 0 1-91.02222187-91.02222294v-129.70666666H147.91111147a86.92622187 86.92622187 0 0 1-91.02222294-91.02222187v-346.79466667a95.11822187 95.11822187 0 0 1 91.02222294-100.1244448h60.52977706v-55.97866666a95.57333333 95.57333333 0 0 1 95.57333334-95.57333334h415.97155626a95.57333333 95.57333333 0 0 1 95.57333334 95.57333334v55.97866666h50.51733333a104.2204448 104.2204448 0 0 1 101.03466667 100.1244448V527.36a96.0284448 96.0284448 0 0 1-101.03466667 91.02222187zM263.9644448 748.08888853a32.768 32.768 0 0 0 35.0435552 35.95377814h415.5164448c20.02488853 0 45.51111147-12.288 45.5111104-35.95377814v-129.70666666H263.9644448z m496.0711104-723.62666666a40.04977813 40.04977813 0 0 0-40.04977707-40.50488854H304.01422187a40.04977813 40.04977813 0 0 0-40.04977707 40.50488854v182.0444448a40.04977813 40.04977813 0 0 0 40.04977707 40.96h415.97155626a40.04977813 40.04977813 0 0 0 40.04977707-40.50488854z m152.00711147 156.10311146a48.69688853 48.69688853 0 0 0-45.51111147-45.51111146h-50.97244373v70.54222293a95.57333333 95.57333333 0 0 1-95.57333334 95.57333333H304.01422187a95.57333333 95.57333333 0 0 1-95.57333334-95.57333333v-69.632H147.91111147a40.04977813 40.04977813 0 0 0-35.49866667 45.5111104v345.8844448A33.22311147 33.22311147 0 0 0 147.91111147 563.31377813h718.16533333c20.48 0 45.51111147-12.288 45.5111104-35.95377813z m-682.66666667 299.91822187h-40.04977813a14.1084448 14.1084448 0 0 0 0 27.76177813h41.41511146a14.1084448 14.1084448 0 1 0 0-27.76177813z m100.5795552 0H284.4444448a14.1084448 14.1084448 0 1 0 0 27.76177813h45.5111104a14.1084448 14.1084448 0 0 0 0-27.76177813z m455.11111147-124.24533333H230.74133333a14.1084448 14.1084448 0 0 0 0 27.76177813H785.06666667a14.1084448 14.1084448 0 0 0 0-27.76177813z"  horiz-adv-x="1024" />

    
    <glyph glyph-name="code" unicode="&#58895;" d="M288.145625 154.39312500000005c-7.205625 0-14.431875 2.60625-20.165625 7.865625L45.374375 367.25250000000005a29.806875 29.806875 0 0 0-9.58875 21.890625 29.8125 29.8125 0 0 0 9.58875 21.890625l222.60375 204.995625c12.1275 11.1 30.9375 10.35375 42.05625-1.734375 11.139375-12.088125 10.363125-30.9075-1.725-42.046875L109.458125 389.143125l198.855-183.105c12.088125-11.139375 12.8625-29.95875 1.725-42.046875a29.67375 29.67375 0 0 0-21.8925-9.598125zM735.854375 148.27125c-8.019375 0-16.02 3.225-21.890625 9.598125-11.139375 12.088125-10.363125 30.91875 1.74375 42.046875l198.834375 183.095625-198.855 183.105c-12.088125 11.139375-12.8625 29.95875-1.725 42.046875 11.158125 12.0975 29.949375 12.834375 42.05625 1.734375l222.60375-204.995625a29.75625 29.75625 0 0 0-0.020625-43.78125l-222.6-204.98625a29.664375 29.664375 0 0 0-20.146875-7.86375zM394.20875 48.94124999999997c-3.6225 0-7.303125 0.6675-10.88625 2.071875-15.285 6.015-22.820625 23.285625-16.815 38.58L606.52625 700.18125c6.024375 15.30375 23.24625 22.820625 38.589375 16.805625 15.285-6.015 22.820625-23.285625 16.815-38.58L421.91 67.81875000000002c-4.610625-11.720625-15.826875-18.8775-27.70125-18.8775z"  horiz-adv-x="1024" />

    
    <glyph glyph-name="underline" unicode="&#59360;" d="M784.72727281-19.636364060000005h-523.63636406a32.72727281 32.72727281 0 0 0 0 65.45454562h523.63636406a32.72727281 32.72727281 0 0 0 0-65.45454562z m-261.81818156 98.18181844C360.49454563 78.54545438000002 228.36363594 210.67636405999997 228.36363594 373.09090875000004v370.90909125a32.72727281 32.72727281 0 0 0 65.45454562 0v-370.90909125C293.81818156 246.76363593999997 396.58181844 144 522.90909125 144S752 246.76363593999997 752 373.09090875000004v370.90909125a32.72727281 32.72727281 0 0 0 65.45454562 0v-370.90909125C817.45454562 210.67636405999997 685.32363594 78.54545438000002 522.90909125 78.54545438000002z"  horiz-adv-x="1024" />

    
    <glyph glyph-name="daoru" unicode="&#58933;" d="M917.00000001 76.5L917 696.7C917.00000001 755.3 869.3 803 810.7 803l-356 0c-17.6 0-31.9-14.3-31.9-31.9s14.3-31.9 31.9-31.9l356 0c23.4 0 42.5-19.1 42.5-42.5l1e-8-620.2c0-23.4-19.1-42.5-42.5-42.5l-584.50000001 0c-23.4 0-42.5 19.1-42.5 42.5l0 413c0 17.6-14.3 31.9-31.9 31.9s-31.9-14.3-31.9-31.9l0-413c0-58.6 47.7-106.3 106.3-106.3L810.70000001-29.799999999999955c58.6 0 106.3 47.7 106.3 106.3zM352.1 364.79999999999995l-61.4 0c-19.3 0.1-30.00000001-22.3-17.9-37.3l185.3-229.1c9.2-11.4 26.5-11.3 35.7 0.1l205.1 228c12 15 1.39999999 38.3-17.8 38.4L619 364.9c-11.7 0-20.1 8-22.7 19.4C527 688.5 170.4 765.4 145.9 762.8c93.7-99 238.6-199.00000001 229.2-375.7-0.7-12.6-10.5-22.4-23-22.3z"  horiz-adv-x="1024" />

    
    <glyph glyph-name="ol" unicode="&#59120;" d="M349.29890773 763.63588267h542.33697494a54.23369707 54.23369707 0 0 0 0-108.4673952h-542.33697494a54.23369707 54.23369707 0 0 0 0 108.4673952z m0-325.4021856h542.33697494a54.23369707 54.23369707 0 0 0 0-108.46739414h-542.33697494a54.23369707 54.23369707 0 0 0 0 108.46739414z m0-325.40218454h542.33697494a54.23369707 54.23369707 0 0 0 0-108.4673952h-542.33697494a54.23369707 54.23369707 0 0 0 0 108.4673952zM97.1122144 760.3818602700001v25.48983786a167.03978773 167.03978773 0 0 1 24.9475008 0 35.25190293 35.25190293 0 0 1 18.43945707 10.30440214 33.08255573 33.08255573 0 0 1 7.59271786 13.55842453 31.45554453 31.45554453 0 0 1 0 7.59271787H182.801456v-189.27560427h-40.67527253V760.3818602700001z m0-420.3111552a108.4673952 108.4673952 0 0 0 37.96358827 40.6752736 279.8458784 279.8458784 0 0 1 33.6248928 26.57451093 39.59059947 39.59059947 0 0 1 11.93141333 27.65918613 30.3708704 30.3708704 0 0 1-6.50804373 20.06646827 23.86282667 23.86282667 0 0 1-19.5241312 8.13505387 23.3204896 23.3204896 0 0 1-26.03217494-12.4737504 63.45342613 63.45342613 0 0 1-4.33869546-23.3204896h-35.251904a92.7396224 92.7396224 0 0 0 8.677392 39.59059946 54.23369707 54.23369707 0 0 0 54.23369706 28.7438592 67.7921216 67.7921216 0 0 0 48.26799147-16.81244586 58.5723936 58.5723936 0 0 0 17.89712-44.471632 60.7417408 60.7417408 0 0 0-12.4737504-37.96358827 126.90685227 126.90685227 0 0 0-27.65918613-24.40516373l-15.18543467-10.8467392-19.5241312-14.64309867a42.8446208 42.8446208 0 0 1-8.677392-10.30440213h83.5198944v-33.08255574H86.80781227a90.02793813 90.02793813 0 0 0 8.67739093 37.4212512z m27.11684907-304.2510432a43.38695787 43.38695787 0 0 1 3.7963584-18.98179414 25.48983787 25.48983787 0 0 1 24.9475008-14.10076053 27.65918613 27.65918613 0 0 1 17.35478293 5.4233696 28.2015232 28.2015232 0 0 1 8.13505493 21.6934784 24.9475008 24.9475008 0 0 1-15.18543466 25.48983787 78.0965248 78.0965248 0 0 1-27.11684907 7.0503808v27.11684906a71.58848107 71.58848107 0 0 1 25.48983787 3.7963584 22.23581547 22.23581547 0 0 1 12.4737504 23.32049067 24.9475008 24.9475008 0 0 1-6.50804374 17.89712 23.3204896 23.3204896 0 0 1-17.89712 7.0503808 22.77815253 22.77815253 0 0 1-19.5241312-8.677392 35.79424 35.79424 0 0 1-5.96570666-22.77815253h-35.251904a94.90897067 94.90897067 0 0 0 4.8810336 27.116848 61.28407787 61.28407787 0 0 0 14.6430976 20.60880533 50.97967573 50.97967573 0 0 0 17.354784 10.30440213 76.4695136 76.4695136 0 0 0 24.9475008 2.71168534 66.70744747 66.70744747 0 0 0 44.47163093-14.1007616 47.18331627 47.18331627 0 0 0 16.81244693-37.96358827 42.30228373 42.30228373 0 0 0-10.3044032-28.7438592 34.16722987 34.16722987 0 0 0-13.01608746-9.76206613 27.11684907 27.11684907 0 0 0 14.64309866-8.67739094 47.18331627 47.18331627 0 0 0 14.64309867-36.33657706 61.28407787 61.28407787 0 0 0-16.81244587-42.84462187 64.53810027 64.53810027 0 0 0-49.89500266-18.43945707 60.7417408 60.7417408 0 0 0-54.23369707 26.574512 79.18119787 79.18119787 0 0 0-9.219728 36.87891414z"  horiz-adv-x="1024" />

    
    <glyph glyph-name="italic" unicode="&#58899;" d="M643.83593775 713.589844L512 54.41015600000003h131.83593775v-65.9179685H248.32812525v65.9179685h131.835937L512 713.589844H380.16406225V779.5078125h395.5078125v-65.9179685H643.83593775z"  horiz-adv-x="1024" />

    


  </font>
</defs>
</svg>
